<?xml version="1.0" standalone="no"?>
<!DOCTYPE svg PUBLIC "-//W3C//DTD SVG 1.1//EN" "http://www.w3.org/Graphics/SVG/1.1/DTD/svg11.dtd" >
<svg xmlns="http://www.w3.org/2000/svg">
<metadata></metadata>
<defs>
<font id="exotc350_dmbd_btdemi-bold" horiz-adv-x="602" >
<font-face units-per-em="2048" ascent="1556" descent="-492" />
<missing-glyph horiz-adv-x="500" />
<glyph horiz-adv-x="2048" />
<glyph horiz-adv-x="2048" />
<glyph unicode="&#xd;" />
<glyph unicode=" " />
<glyph unicode="!" horiz-adv-x="649" d="M205 86q0 50 34 84.5t85 34.5q49 0 84.5 -35t35.5 -84t-35.5 -84t-84.5 -35q-50 0 -84.5 35t-34.5 84zM213 1229q0 67 29 103t84 36q53 0 82.5 -36.5t29.5 -102.5q0 -15 -4 -54.5t-6 -62.5l-80 -846h-47l-80 846q-4 36 -6 66t-2 51z" />
<glyph unicode="&#x22;" horiz-adv-x="590" d="M94 881v553h117v-553h-117zM377 881v553h119v-553h-119z" />
<glyph unicode="#" horiz-adv-x="1575" d="M104 467l43 123h320l96 272h-342l43 123h344l168 471h146l-166 -471h260l168 471h143l-164 -471h307l-43 -123h-311l-94 -272h330l-43 -123h-332l-166 -469h-145l168 469h-265l-168 -469h-143l166 469h-320zM614 590h263l96 272h-264z" />
<glyph unicode="$" horiz-adv-x="965" d="M57 973q0 163 113.5 269t290.5 106q24 0 70 -7q18 -3 26 -3l21 120h57l-23 -133q66 -17 121 -60.5t109 -119.5l-76 -72q-40 71 -81 110t-89 54l-78 -442q199 -61 293 -159t94 -243q0 -169 -128 -281t-320 -112h-31q-17 0 -27 0.5t-20 1.5l-27 -143h-55l27 155 q-77 24 -136 71t-118 132l77 64q46 -70 94 -110.5t101 -53.5l84 475q-198 65 -283.5 154t-85.5 227zM274 1036q0 -80 48.5 -137t140.5 -86l80 440q-11 1 -24 2.5t-15 1.5q-108 0 -169 -59t-61 -162zM395 102q9 0 25 -2q24 -2 31 -2q99 0 162 66t63 170q0 87 -51 148t-150 91 z" />
<glyph unicode="%" horiz-adv-x="1796" d="M84 973q0 152 107.5 258t261.5 106q153 0 259.5 -105.5t106.5 -258.5q0 -152 -107 -258.5t-259 -106.5q-154 0 -261.5 106.5t-107.5 258.5zM279 979q0 -153 42.5 -227t131.5 -74q85 0 129.5 73t44.5 214q0 156 -42.5 228.5t-131.5 72.5q-87 0 -130.5 -72.5t-43.5 -214.5z M397 -33l879 1399h123l-881 -1399h-121zM977 365q0 152 106.5 258t259.5 106q154 0 261.5 -106t107.5 -258q0 -153 -108 -259t-261 -106q-152 0 -259 106t-107 259zM1169 371q0 -153 43 -227t131 -74q86 0 130.5 73t44.5 213q0 156 -42.5 228.5t-132.5 72.5q-86 0 -130 -72 t-44 -214z" />
<glyph unicode="&#x26;" horiz-adv-x="1186" d="M82 451q0 135 67 243t220 215l-74 109q-23 33 -33 61t-10 60q0 93 85 162t206 69q105 0 174 -66.5t69 -166.5q0 -80 -40.5 -144t-131.5 -127l330 -499q8 46 10 68.5t2 43.5q0 44 -9 98t-27 119h102q17 -53 26 -105t9 -102q0 -65 -9 -123t-28 -114l176 -252h-221l-68 102 q-72 -64 -157.5 -95.5t-190.5 -31.5q-202 0 -339.5 137.5t-137.5 338.5zM274 449q0 -157 94 -258t238 -101q70 0 130.5 25.5t113.5 77.5l-389 575q-100 -71 -143.5 -145.5t-43.5 -173.5zM395 1208q0 -11 3.5 -23.5t10.5 -26.5l99 -142q58 40 84 77.5t26 80.5q0 52 -32 82 t-88 30q-43 0 -73 -23t-30 -55z" />
<glyph unicode="'" horiz-adv-x="305" d="M94 881v553h117v-553h-117z" />
<glyph unicode="(" horiz-adv-x="782" d="M279 440q0 253 68.5 499t189.5 429l116 -53q-87 -180 -132.5 -402.5t-45.5 -472.5t45.5 -472t132.5 -402l-116 -51q-121 183 -189.5 429t-68.5 496z" />
<glyph unicode=")" horiz-adv-x="782" d="M129 -434q88 180 133 402t45 472t-45.5 472.5t-132.5 402.5l117 53q121 -183 189.5 -429t68.5 -499q0 -250 -69 -496t-189 -429z" />
<glyph unicode="*" horiz-adv-x="995" d="M162 1028l53 168l252 -145l-57 286h174l-58 -286l252 145l56 -168l-289 -31l213 -198l-142 -103l-118 267l-121 -265l-141 103l215 196z" />
<glyph unicode="+" horiz-adv-x="1706" d="M254 553v117h541v551h118v-551h539v-117h-539v-553h-118v553h-541z" />
<glyph unicode="," d="M76 -381l123 420q29 100 57.5 135t71.5 35q42 0 70 -26t28 -66q0 -31 -15.5 -65t-54.5 -83z" />
<glyph unicode="-" horiz-adv-x="674" d="M86 240v163l500 265v-162z" />
<glyph unicode="." d="M182 90q0 50 34.5 85.5t84.5 35.5q49 0 84 -35.5t35 -85.5q0 -49 -35 -84t-84 -35t-84 35t-35 84z" />
<glyph unicode="/" horiz-adv-x="545" d="M-2 -190l444 1556h105l-445 -1556h-104z" />
<glyph unicode="0" horiz-adv-x="1204" d="M74 596q0 342 160.5 556t412.5 214q212 0 347.5 -174t135.5 -455q0 -341 -161 -555.5t-412 -214.5q-212 0 -347.5 174t-135.5 455zM319 662q0 -286 73 -447.5t200 -161.5q132 0 211.5 171t79.5 464q0 274 -74.5 433t-198.5 159q-131 0 -211 -167.5t-80 -450.5z" />
<glyph unicode="1" horiz-adv-x="578" d="M45 1246v87q62 4 141.5 11t229.5 22v-1366h-213v1257q-35 -4 -105 -8q-35 -2 -53 -3z" />
<glyph unicode="2" horiz-adv-x="995" d="M35 0l436 596q130 175 168.5 259.5t38.5 164.5q0 114 -69.5 181t-188.5 67q-121 0 -191.5 -81.5t-70.5 -223.5q0 -7 1 -20t1 -19h-101v61q0 183 104.5 282t295.5 99q196 0 321 -109.5t125 -279.5q0 -88 -34 -174.5t-113 -194.5l-373 -508h530v-100h-880z" />
<glyph unicode="3" horiz-adv-x="793" d="M0 1237v100h750l-369 -483q21 1 43.5 1.5t54.5 0.5q123 0 185.5 -46.5t62.5 -137.5q0 -49 -23.5 -106t-68.5 -115l-342 -451h-279l406 535q39 52 56.5 88.5t17.5 64.5q0 47 -39 66.5t-136 19.5h-231l350 463h-438z" />
<glyph unicode="4" horiz-adv-x="1128" d="M27 449v30l606 858h233v-788h226v-100h-226v-449h-213v449h-626zM203 549h450v629z" />
<glyph unicode="5" horiz-adv-x="877" d="M88 0l404 573v2q49 66 49 113q0 48 -37 67t-146 19h-264v563h680v-100h-461v-365h191q163 0 227 -40t64 -134q0 -41 -25 -96.5t-74 -124.5l-336 -477h-272z" />
<glyph unicode="6" horiz-adv-x="952" d="M35 381q0 77 22 166.5t62 175.5l284 614h226l-289 -626q46 41 104.5 62.5t124.5 21.5q148 0 237 -95.5t89 -253.5q0 -204 -127.5 -341.5t-321.5 -137.5q-184 0 -297.5 114.5t-113.5 299.5zM268 334q0 -132 49 -207.5t132 -75.5q98 0 158.5 97.5t60.5 259.5 q0 135 -49.5 210.5t-137.5 75.5q-94 0 -153.5 -99.5t-59.5 -260.5z" />
<glyph unicode="7" horiz-adv-x="811" d="M-33 1237v100h885l-563 -1337h-234l529 1237h-617z" />
<glyph unicode="8" horiz-adv-x="948" d="M18 373q0 147 83 253t235 152q-90 28 -140.5 94.5t-50.5 157.5q0 147 104 241.5t265 94.5q146 0 233 -79.5t87 -211.5q0 -90 -45 -158t-140 -120q129 -34 196.5 -127.5t67.5 -237.5q0 -202 -136 -333.5t-345 -131.5q-186 0 -300 112t-114 294zM258 365q0 -146 53 -229 t146 -83q94 0 153.5 97.5t59.5 255.5q0 147 -52.5 231t-142.5 84q-97 0 -157 -98t-60 -258zM344 1036q0 -101 37 -158t102 -57q66 0 107 68t41 178q0 102 -36.5 159.5t-98.5 57.5q-68 0 -110 -68t-42 -180z" />
<glyph unicode="9" horiz-adv-x="948" d="M43 891q0 191 139.5 333t327.5 142q169 0 281 -113t112 -282q0 -69 -21.5 -145.5t-80.5 -202.5l-293 -623h-234l279 596q-51 -25 -92 -36t-78 -11q-147 0 -243.5 97.5t-96.5 244.5zM285 930q0 -131 51 -206t139 -75q96 0 156.5 98t60.5 257q0 130 -50 205t-134 75 q-100 0 -161.5 -97t-61.5 -257z" />
<glyph unicode=":" d="M182 90q0 50 34.5 85.5t84.5 35.5q49 0 84 -35.5t35 -85.5q0 -49 -35 -84t-84 -35t-84 35t-35 84zM182 621q0 49 34.5 83.5t84.5 34.5q49 0 84 -34.5t35 -83.5q0 -50 -35 -84.5t-84 -34.5t-84 34.5t-35 84.5z" />
<glyph unicode=";" d="M76 -381l123 420q29 100 57.5 135t71.5 35q42 0 70 -26t28 -66q0 -31 -15.5 -65t-54.5 -83zM209 621q0 49 34.5 83.5t84.5 34.5q49 0 83.5 -34.5t34.5 -83.5q0 -50 -34.5 -84.5t-83.5 -34.5t-84 34.5t-35 84.5z" />
<glyph unicode="&#x3c;" horiz-adv-x="1706" d="M264 559v103l1178 483v-127l-1000 -408l1000 -405v-129z" />
<glyph unicode="=" horiz-adv-x="1706" d="M254 360v117h1198v-117h-1198zM254 743v117h1198v-117h-1198z" />
<glyph unicode="&#x3e;" horiz-adv-x="1706" d="M264 76v129l1000 405l-1000 408v127l1178 -483v-103z" />
<glyph unicode="?" horiz-adv-x="915" d="M92 1059v8q0 138 87 218.5t235 80.5q175 0 285 -98.5t110 -255.5q0 -89 -38.5 -169.5t-108.5 -137.5q-21 -18 -59 -48q-67 -51 -87 -75q-19 -23 -32 -63t-27 -134l-19 -121h-57l-39 338q-1 12 -1.5 22t-0.5 17q0 43 77 101l32 24q78 63 115.5 133.5t37.5 155.5 q0 100 -61 162.5t-158 62.5q-96 0 -148.5 -51t-52.5 -146v-24h-90zM291 86q0 50 34 84.5t85 34.5q49 0 84.5 -35t35.5 -84t-35.5 -84t-84.5 -35q-50 0 -84.5 35t-34.5 84z" />
<glyph unicode="@" horiz-adv-x="2048" d="M113 522q0 163 50.5 309t149.5 269q146 176 349.5 267t453.5 91q165 0 311 -43.5t248 -124.5q129 -99 195.5 -230t66.5 -282q0 -169 -62.5 -308.5t-182.5 -236.5q-69 -55 -148.5 -83.5t-163.5 -28.5q-99 0 -148.5 39t-49.5 116q0 3 1 11t1 12q-51 -87 -127 -132.5 t-170 -45.5q-153 0 -233.5 85t-80.5 247q0 230 137 389t332 159q91 0 153.5 -39.5t96.5 -117.5l58 121h110l-141 -568q-6 -24 -9 -44t-3 -36q0 -44 27.5 -67t82.5 -23q45 0 100 24t103 64q89 76 139.5 196.5t50.5 254.5q0 266 -195.5 428t-518.5 162q-168 0 -312.5 -52 t-259.5 -153q-140 -122 -211 -282.5t-71 -354.5q0 -173 60.5 -304t186.5 -230q101 -81 240 -124.5t295 -43.5q172 0 334.5 48.5t296.5 139.5l45 -66q-147 -109 -313 -165t-347 -56q-191 0 -348 46.5t-276 138.5q-153 117 -228 272t-75 352zM713 446q0 -110 51 -169.5 t145 -59.5q102 0 183.5 70.5t109.5 185.5l60 242q-17 90 -72 140t-135 50q-146 0 -244 -131.5t-98 -327.5z" />
<glyph unicode="A" horiz-adv-x="1100" d="M-12 0l549 1364l571 -1364h-264l-139 356h-461l-138 -356h-118zM279 440h389l-195 488z" />
<glyph unicode="B" horiz-adv-x="1233" d="M172 0v1337h395q126 0 208.5 -12t127.5 -37q81 -43 127.5 -120.5t46.5 -170.5q0 -112 -59 -185.5t-172 -102.5q135 -36 206.5 -126t71.5 -225q0 -182 -117.5 -270t-361.5 -88h-473zM420 86h158q159 0 232 61.5t73 194.5q0 161 -85 239t-259 78h-119v-573zM420 743h123 q157 0 228 61t71 195q0 129 -78.5 190.5t-241.5 61.5h-102v-508z" />
<glyph unicode="C" horiz-adv-x="1290" d="M76 668q0 299 186.5 498.5t462.5 199.5q168 0 291.5 -69t204.5 -207l-80 -56q-62 122 -153.5 183t-211.5 61q-201 0 -318.5 -166t-117.5 -453q0 -277 112 -430t314 -153q135 0 239.5 74.5t170.5 218.5l81 -52q-78 -169 -217.5 -259.5t-324.5 -90.5q-275 0 -457 197 t-182 504z" />
<glyph unicode="D" horiz-adv-x="1405" d="M172 0v1337h328q391 0 611 -185.5t220 -512.5q0 -288 -179.5 -463.5t-473.5 -175.5h-506zM418 100h147q121 0 199.5 21.5t130.5 66.5q82 72 126 196.5t44 287.5q0 273 -142.5 419t-410.5 146h-94v-1137z" />
<glyph unicode="E" horiz-adv-x="1112" d="M172 0v1337h827v-100h-579v-489h538v-101h-538v-547h579v-100h-827z" />
<glyph unicode="F" horiz-adv-x="1065" d="M172 0v1337h848v-100h-600v-489h563v-95h-563v-653h-248z" />
<glyph unicode="G" horiz-adv-x="1356" d="M76 668q0 299 186.5 498.5t462.5 199.5q168 0 291.5 -69t204.5 -207l-80 -56q-62 122 -153.5 183t-211.5 61q-201 0 -318.5 -166t-117.5 -453q0 -276 112.5 -429.5t313.5 -153.5q78 0 145.5 24t116.5 70v455h225v-451q-118 -103 -245 -155t-263 -52q-299 0 -484 193.5 t-185 507.5z" />
<glyph unicode="H" horiz-adv-x="1399" d="M172 0v1337h248v-608h559v608h246v-1337h-246v631h-559v-631h-248z" />
<glyph unicode="I" d="M178 0v1337h246v-1337h-246z" />
<glyph unicode="J" horiz-adv-x="639" d="M-12 -2v86h53q104 0 145 45.5t41 167.5v1040h246v-1007q0 -178 -84 -258t-272 -80q-29 0 -62 1.5t-67 4.5z" />
<glyph unicode="K" horiz-adv-x="1110" d="M172 0v1337h248v-1337h-248zM434 670l494 667h153l-417 -573l458 -764h-293z" />
<glyph unicode="L" horiz-adv-x="973" d="M172 0v1337h248v-1237h579v-100h-827z" />
<glyph unicode="M" horiz-adv-x="1622" d="M168 0v1337h281l376 -915l363 915h262v-1337h-242v1075l-452 -1124l-473 1124v-1075h-115z" />
<glyph unicode="N" horiz-adv-x="1374" d="M168 0v1337h227l692 -923v923h119v-1337h-119l-800 1065v-1065h-119z" />
<glyph unicode="O" horiz-adv-x="1518" d="M76 666q0 149 51 277t149 224t222 147.5t260 51.5q109 0 212 -34t193 -99q135 -98 207 -244.5t72 -322.5q0 -148 -51.5 -275.5t-149.5 -224.5q-99 -98 -222 -148.5t-261 -50.5q-140 0 -263 50.5t-221 148.5q-97 97 -147.5 225t-50.5 275zM340 666q0 -273 117.5 -443 t300.5 -170t300.5 169.5t117.5 443.5t-117 444t-301 170q-183 0 -300.5 -170t-117.5 -444z" />
<glyph unicode="P" horiz-adv-x="1165" d="M172 0v1337h479q214 0 336.5 -106.5t122.5 -290.5q0 -180 -113 -282.5t-311 -102.5h-266v-555h-248zM420 637h110q167 0 249.5 71.5t82.5 215.5q0 165 -82 246t-250 81h-110v-614z" />
<glyph unicode="Q" horiz-adv-x="1518" d="M76 666q0 148 51 275.5t149 225.5q97 97 221 148t261 51t261 -51t220 -148q100 -99 151.5 -226.5t51.5 -274.5q0 -267 -157 -456.5t-413 -232.5v-157h-227v157q-256 41 -412.5 231t-156.5 458zM340 666q0 -227 82.5 -385.5t222.5 -206.5v151h225v-151q141 48 223.5 206.5 t82.5 385.5q0 274 -117.5 444t-300.5 170t-300.5 -170t-117.5 -444z" />
<glyph unicode="R" horiz-adv-x="1194" d="M172 0v1337h438q249 0 376.5 -99t127.5 -292q0 -144 -90.5 -227t-257.5 -92l354 -627h-278l-359 678q211 14 298 78.5t87 199.5q0 149 -86 222t-260 73h-102v-1251h-248z" />
<glyph unicode="S" horiz-adv-x="1034" d="M100 184l99 70q44 -84 112.5 -131t147.5 -47q107 0 174 67.5t67 173.5q0 169 -299 292l-3 1q-161 66 -228.5 149t-67.5 210q0 174 116 285.5t300 111.5q138 0 241.5 -62t153.5 -176l-88 -59q-33 94 -99 144.5t-157 50.5q-97 0 -159 -62.5t-62 -163.5q0 -80 51 -136 t191 -116q221 -95 291.5 -182t70.5 -223q0 -180 -124.5 -297t-315.5 -117q-138 0 -238 53t-174 164z" />
<glyph unicode="T" horiz-adv-x="967" d="M10 1237v100h946v-100h-350v-1237h-246v1237h-350z" />
<glyph unicode="U" horiz-adv-x="1270" d="M168 485v852h248v-807q0 -236 66 -328.5t223 -92.5t222.5 92.5t65.5 328.5v807h119v-852q0 -259 -117.5 -388.5t-353.5 -129.5q-105 0 -201.5 38t-158.5 104q-61 64 -87 146.5t-26 229.5z" />
<glyph unicode="V" horiz-adv-x="1053" d="M-20 1337h262l356 -911l338 911h129l-530 -1370z" />
<glyph unicode="W" horiz-adv-x="1608" d="M-20 1337h262l362 -927l150 393l-219 534h260l358 -911l338 911h129l-530 -1370l-283 715l-272 -715z" />
<glyph unicode="X" horiz-adv-x="1139" d="M6 0l447 633l-445 704h281l319 -503l353 503h141l-428 -600l477 -737h-283l-344 539l-377 -539h-141z" />
<glyph unicode="Y" horiz-adv-x="1042" d="M-51 1337h293l338 -549l362 549h150l-447 -655v-682h-248v647z" />
<glyph unicode="Z" horiz-adv-x="1157" d="M31 0l755 1237h-680v100h1016l-753 -1237h739v-100h-1077z" />
<glyph unicode="[" horiz-adv-x="782" d="M281 -434v1771h352v-75h-158v-1620h158v-76h-352z" />
<glyph unicode="\" horiz-adv-x="545" d="M-2 1366h102l447 -1556h-105z" />
<glyph unicode="]" horiz-adv-x="782" d="M147 -358h160v1620h-160v75h353v-1771h-353v76z" />
<glyph unicode="^" horiz-adv-x="2048" d="M422 901l520 557h162l520 -557h-158l-442 438l-442 -438h-160z" />
<glyph unicode="_" horiz-adv-x="1024" d="M0 -365h1024v-118h-1024v118z" />
<glyph unicode="`" horiz-adv-x="1024" d="M276 1364h152l209 -350h-92z" />
<glyph unicode="a" horiz-adv-x="840" d="M39 0l215 768q18 66 58 100.5t98 34.5q61 0 106 -38.5t66 -108.5l225 -756h-199l-80 270h-325l-78 -270h-86zM223 346h285l-104 372q-10 31 -19 40.5t-23 9.5q-10 0 -17.5 -10.5t-16.5 -40.5z" />
<glyph unicode="b" horiz-adv-x="993" d="M137 0v1432h195v-555q40 3 68 4.5t42 1.5q228 0 358 -122.5t130 -332.5q0 -191 -125 -309.5t-326 -118.5h-342zM332 76q20 -4 44 -6t52 -2q161 0 232 76t71 247q0 208 -80 311t-241 103q-14 0 -59 -3q-13 -1 -19 -1v-725z" />
<glyph unicode="c" horiz-adv-x="868" d="M63 442q0 194 123.5 327.5t305.5 133.5q116 0 201.5 -50.5t129.5 -145.5l-73 -39q-39 82 -94.5 122.5t-131.5 40.5q-124 0 -190 -100t-66 -291q0 -174 69.5 -281.5t178.5 -107.5q77 0 140.5 47.5t109.5 139.5l70 -45q-56 -106 -147 -164t-202 -58q-180 0 -302 133.5 t-122 337.5z" />
<glyph unicode="d" horiz-adv-x="993" d="M63 449q0 203 123.5 320.5t337.5 117.5q23 0 55.5 -2.5t81.5 -7.5l1 555h194v-1432h-305q-221 0 -354.5 123.5t-133.5 325.5zM262 422q0 -175 77.5 -260.5t235.5 -85.5h87l-1 725q-37 5 -64 7.5t-48 2.5q-144 0 -215.5 -97t-71.5 -292z" />
<glyph unicode="e" horiz-adv-x="799" d="M137 158v561q0 98 31.5 128t132.5 30h418v-76h-299q-53 0 -70.5 -15t-17.5 -55v-221h317v-86h-317v-279q0 -40 18 -54.5t84 -14.5h295v-76h-459q-74 0 -103.5 31t-29.5 127z" />
<glyph unicode="f" horiz-adv-x="541" d="M137 0v1137q0 171 58.5 233t207.5 62h25l98 -2v-80h-52q-88 -2 -115 -28t-27 -110v-335h203v-86h-203v-791h-195z" />
<glyph unicode="g" horiz-adv-x="944" d="M63 442q0 194 123.5 327.5t305.5 133.5q116 0 201.5 -50.5t129.5 -145.5l-73 -39q-39 82 -94.5 122.5t-131.5 40.5q-124 0 -190 -100t-66 -291q0 -173 70 -281t178 -108q84 0 124 57.5t40 176.5v155h170v-796h-170v405q-49 -41 -98 -60.5t-103 -19.5q-171 0 -293.5 136 t-122.5 337z" />
<glyph unicode="h" horiz-adv-x="995" d="M137 0v1432h195v-914h332v359h194v-877h-194v442h-332v-442h-195z" />
<glyph unicode="i" horiz-adv-x="469" d="M121 1128q0 47 33.5 80t81.5 33q46 0 79 -32.5t33 -80.5q0 -46 -32.5 -79t-79.5 -33q-48 0 -81.5 33t-33.5 79zM137 0v877h195v-877h-195z" />
<glyph unicode="j" horiz-adv-x="483" d="M-35 -274l54 2q87 1 114 26.5t27 108.5v1014h194v-936q0 -172 -58.5 -234.5t-209.5 -62.5h-23l-98 4v78zM143 1128q0 47 34 80t81 33t80 -32.5t33 -80.5q0 -46 -33 -79t-80 -33q-48 0 -81.5 33t-33.5 79z" />
<glyph unicode="k" horiz-adv-x="893" d="M137 0v1432h195v-1000l360 445h109l-301 -371l395 -506h-244l-319 410v-410h-195z" />
<glyph unicode="l" horiz-adv-x="494" d="M137 158v1274h195v-1287q0 -40 18 -54.5t84 -14.5h49v-76h-213q-74 0 -103.5 31t-29.5 127z" />
<glyph unicode="m" horiz-adv-x="1176" d="M145 0v752q0 73 37.5 112t108.5 39q64 0 101.5 -32.5t62.5 -110.5l139 -453l129 475q17 62 55.5 91.5t102.5 29.5q72 0 110.5 -41.5t38.5 -120.5v-741h-188v733q0 16 -5 24.5t-14 8.5q-10 0 -15.5 -6t-10.5 -22l-193 -689q-11 -41 -26.5 -59.5t-38.5 -18.5t-39.5 16 t-26.5 46l-207 695q-1 3 -3 12q-6 26 -17 26q-7 0 -11.5 -9.5t-5.5 -25.5v-731h-84z" />
<glyph unicode="n" horiz-adv-x="932" d="M137 0v727q0 93 30.5 134.5t96.5 41.5q53 0 100 -36.5t89 -110.5l229 -408q1 -2 4.5 -4t7.5 -2q8 0 11.5 5t3.5 20v510h84v-803q0 -61 -14.5 -82t-49.5 -21q-25 0 -42.5 12.5t-33.5 41.5l-403 692q-4 7 -7 9.5t-7 2.5q-9 0 -12 -4t-3 -20v-705h-84z" />
<glyph unicode="o" horiz-adv-x="1006" d="M63 449q0 201 114 327.5t298 126.5q200 0 333.5 -136t133.5 -341q0 -202 -114.5 -328.5t-299.5 -126.5q-198 0 -331.5 136t-133.5 342zM266 436q0 -179 65.5 -289t170.5 -110t170 109.5t65 289.5q0 181 -65 291.5t-170 110.5t-170.5 -111t-65.5 -291z" />
<glyph unicode="p" horiz-adv-x="993" d="M137 -356v1233h305q221 0 354.5 -124t133.5 -325q0 -196 -128.5 -317t-338.5 -121q-32 0 -95 6q-25 3 -36 4v-356h-195zM332 76q48 -6 75 -8t46 -2q140 0 209 80t69 243q0 212 -75 312t-236 100h-88v-725z" />
<glyph unicode="q" horiz-adv-x="1006" d="M63 449q0 201 114.5 327.5t297.5 126.5q200 0 333.5 -136t133.5 -343q0 -184 -101 -310t-257 -139v-217h-162v226q-166 39 -262.5 164t-96.5 301zM266 436q0 -142 45 -248.5t111 -128.5v207h162v-209q71 37 112 138.5t41 240.5q0 180 -65 291t-170 111t-170.5 -111 t-65.5 -291z" />
<glyph unicode="r" horiz-adv-x="915" d="M137 0v877h352q164 0 249 -62t85 -180q0 -86 -51 -141t-141 -66l227 -428h-233l-209 438q106 2 155.5 44t49.5 132q0 98 -48.5 144.5t-150.5 46.5h-90v-805h-195z" />
<glyph unicode="s" horiz-adv-x="764" d="M96 635q0 124 89 193t251 69q35 0 77.5 -4t98.5 -12v-74q-86 10 -117.5 13t-45.5 3q-86 0 -131.5 -30t-45.5 -86q0 -70 124 -141l12 -7l88 -53q118 -69 155 -120.5t37 -127.5q0 -126 -93 -196t-263 -70q-47 0 -100 6t-115 18v72q47 -12 92 -18.5t90 -6.5q100 0 149.5 33 t49.5 101q0 88 -140 163l-11 6l-56 31q-109 59 -152 112.5t-43 125.5z" />
<glyph unicode="t" horiz-adv-x="688" d="M59 801v76h568v-76h-187v-801h-194v801h-187z" />
<glyph unicode="u" horiz-adv-x="905" d="M133 311v566h195v-568q0 -106 49.5 -163.5t142.5 -57.5q97 0 138.5 60t41.5 200v529h86v-590q0 -147 -82 -231.5t-225 -84.5q-170 0 -258 86.5t-88 253.5z" />
<glyph unicode="v" horiz-adv-x="854" d="M53 877h199l223 -764q3 -9 9.5 -15t13.5 -6q8 1 13.5 6t8.5 14l221 765h82l-209 -707q-32 -112 -71.5 -155.5t-104.5 -43.5t-105 43t-71 152z" />
<glyph unicode="w" horiz-adv-x="1274" d="M53 877h199l221 -764q3 -9 10 -15t15 -6q8 1 13.5 6t8.5 14l86 310l-133 455h199l221 -764q3 -10 9.5 -15.5t12.5 -5.5q8 0 15 6t10 15l221 764h80l-207 -707q-33 -112 -72 -155.5t-104 -43.5q-64 0 -104 42.5t-74 154.5l-37 123l-35 -121q-34 -122 -70 -160.5 t-100 -38.5t-104.5 43.5t-71.5 153.5z" />
<glyph unicode="x" horiz-adv-x="829" d="M8 877h228l210 -312l238 312h98l-286 -381l338 -496h-228l-231 338l-254 -338h-105l312 410z" />
<glyph unicode="y" horiz-adv-x="788" d="M12 877h205l244 -615l256 615h90l-506 -1233h-96l153 360z" />
<glyph unicode="z" horiz-adv-x="735" d="M47 0l359 801h-304v76h373q78 0 103.5 -15.5t25.5 -54.5q0 -14 -3 -26.5t-9 -24.5l-301 -680h405v-76h-649z" />
<glyph unicode="{" horiz-adv-x="1024" d="M172 467v127q8 0 23 -1t22 -1q134 0 189 61.5t55 214.5v244q0 153 22.5 215.5t77.5 97.5q42 28 102 40t160 12h35v-127q-8 0 -23 1t-22 1q-121 0 -164 -47t-43 -197v-242q0 -166 -43.5 -235.5t-154.5 -100.5q111 -30 154.5 -99.5t43.5 -235.5v-242q0 -149 43.5 -195.5 t169.5 -46.5h39v-125h-35q-99 0 -159.5 12t-102.5 40q-55 36 -77.5 100t-22.5 213v244q0 152 -55 213t-189 61q-7 0 -22 -1t-23 -1z" />
<glyph unicode="|" horiz-adv-x="1024" d="M449 -483v2048h126v-2048h-126z" />
<glyph unicode="}" horiz-adv-x="1024" d="M166 -289q8 0 23 -1t22 -1q120 0 163.5 47.5t43.5 198.5v240q0 166 43.5 235.5t154.5 99.5q-111 31 -154.5 100.5t-43.5 235.5v242q0 149 -44 196.5t-169 47.5h-39v125h35q100 0 161 -12.5t103 -39.5q54 -35 76 -98t22 -215v-244q0 -152 55.5 -214t190.5 -62q7 0 22 1 t23 1v-127q-8 0 -23 1t-22 1q-135 0 -190.5 -62t-55.5 -214v-242q0 -153 -22 -216.5t-76 -99.5q-39 -26 -97.5 -37.5t-160.5 -11.5h-41v125z" />
<glyph unicode="~" horiz-adv-x="1706" d="M178 461v133q105 73 202 109t185 36q56 0 116.5 -12.5t174.5 -52.5q14 -5 44 -16q158 -58 245 -58q84 0 174.5 37t210.5 121v-131q-101 -72 -197.5 -108t-189.5 -36q-43 0 -90.5 9t-100.5 26q-30 10 -87 31q-202 72 -302 72q-83 0 -173.5 -37.5t-211.5 -122.5z" />
<glyph unicode="&#xa1;" horiz-adv-x="649" d="M205 1247q0 49 34.5 84t84.5 35q49 0 83.5 -35t34.5 -84t-34.5 -84t-83.5 -35q-51 0 -85 35t-34 84zM213 104q0 21 2 52.5t6 66.5l80 844h47l80 -844q2 -23 6 -63t4 -56q0 -65 -29.5 -101t-82.5 -36q-55 0 -84 35.5t-29 101.5z" />
<glyph unicode="&#xa2;" horiz-adv-x="862" d="M53 457q0 204 122 339.5t306 135.5h8l15 190h47l-12 -194q98 -12 167 -61t107 -132l-74 -39q-36 78 -85 117t-119 47l-56 -778q5 0 14.5 -1t14.5 -1q75 0 137.5 47t110.5 139l69 -45q-58 -109 -146 -165t-200 -56h-6l-16 -223h-47l16 225q-170 28 -271.5 152t-101.5 303z M256 455q0 -150 44 -240t134 -125l55 770q-111 -9 -172 -114t-61 -291z" />
<glyph unicode="&#xa3;" horiz-adv-x="952" d="M51 0l178 578h-153v86h180l119 391q49 158 140 234.5t230 76.5q87 0 159.5 -26.5t125.5 -77.5l-67 -72q-42 33 -84.5 50t-81.5 17q-69 0 -116.5 -46.5t-76.5 -143.5l-123 -403h248v-86h-274l-131 -478h514v-100h-787z" />
<glyph unicode="&#xa4;" horiz-adv-x="1204" d="M0 502l33 92h110v12q0 39 2.5 80t7.5 86h-153l33 94h135q50 238 194.5 369t358.5 131q153 0 266.5 -68t190.5 -206l-117 -56q-58 126 -136.5 185t-189.5 59q-117 0 -209.5 -114t-122.5 -300h512l-32 -94h-489q-3 -38 -4 -61t-1 -43q0 -31 0.5 -46t2.5 -28h429l-33 -92 h-389q25 -199 118.5 -322t215.5 -123q115 0 198 64.5t144 202.5l109 -56q-76 -153 -197.5 -227t-296.5 -74q-211 0 -360 150t-180 385h-150z" />
<glyph unicode="&#xa5;" horiz-adv-x="1042" d="M-51 1337h293l338 -549l362 549h150l-406 -583h348v-86h-389v-168h389v-84h-389v-416h-248v416h-387v84h387v168h-387v86h340z" />
<glyph unicode="&#xa6;" horiz-adv-x="1024" d="M449 -350v758h126v-758h-126zM449 674v758h126v-758h-126z" />
<glyph unicode="&#xa7;" horiz-adv-x="1053" d="M115 631q0 99 61 163t154 64q15 0 31.5 -2.5t35.5 -7.5q-86 90 -122.5 157.5t-36.5 135.5q0 99 78.5 166t199.5 67q112 0 197.5 -42.5t138.5 -125.5l-74 -53q-43 65 -104.5 100t-128.5 35q-62 0 -99.5 -31t-37.5 -79q0 -66 104 -170l10 -11l250 -254q95 -96 130.5 -163.5 t35.5 -139.5q0 -99 -62 -161t-159 -62q-7 0 -30 2q-13 2 -19 2q75 -70 115 -143t40 -141q0 -108 -79.5 -178t-204.5 -70q-93 0 -178 43t-156 127l80 69q51 -71 107 -106t120 -35q58 0 92.5 30.5t34.5 80.5q0 34 -23.5 75.5t-70.5 89.5l-266 275q-89 92 -126.5 160t-37.5 133 zM283 678q0 -34 20.5 -69.5t71.5 -86.5l219 -219q31 -12 46 -16t28 -4q48 0 77 29t29 79q0 36 -21 78t-59 80l-223 223q-20 4 -38 6t-32 2q-50 0 -84 -29.5t-34 -72.5z" />
<glyph unicode="&#xa8;" horiz-adv-x="1024" d="M248 1171q0 43 30 73t72 30q41 0 72 -30.5t31 -72.5q0 -41 -30.5 -71.5t-72.5 -30.5q-41 0 -71.5 30.5t-30.5 71.5zM569 1171q0 43 30.5 73t72.5 30q41 0 71.5 -30.5t30.5 -72.5q0 -41 -30.5 -71.5t-71.5 -30.5q-42 0 -72.5 30.5t-30.5 71.5z" />
<glyph unicode="&#xa9;" horiz-adv-x="1706" d="M119 725q0 145 56.5 279.5t162.5 242.5q102 104 234 158.5t280 54.5q151 0 285 -55t239 -160q102 -102 156.5 -236t54.5 -284q0 -151 -54 -283t-157 -233q-109 -106 -244.5 -162.5t-279.5 -56.5q-146 0 -278 55.5t-238 161.5q-106 105 -161.5 238.5t-55.5 279.5zM207 725 q0 -127 49 -244t141 -211q93 -92 209.5 -141t245.5 -49t248.5 50t214.5 142q91 90 138.5 205.5t47.5 247.5q0 130 -49 249t-139 210q-92 92 -210 140t-251 48q-132 0 -247.5 -47.5t-205.5 -138.5q-93 -95 -142.5 -214t-49.5 -247zM465 721q0 208 107.5 332.5t287.5 124.5 q137 0 230 -74.5t104 -192.5h-129q-15 77 -70.5 120.5t-138.5 43.5q-117 0 -182.5 -92.5t-65.5 -259.5q0 -160 66.5 -252t181.5 -92q87 0 145.5 48.5t73.5 133.5h129q-11 -127 -109 -207t-245 -80q-176 0 -280.5 121t-104.5 326z" />
<glyph unicode="&#xaa;" horiz-adv-x="631" d="M29 723l161 539q14 45 44 69.5t73 24.5q46 0 80 -27.5t49 -77.5l170 -528h-149l-60 188h-245l-58 -188h-65zM168 965h213l-78 262q-8 21 -14 27.5t-17 7.5q-7 -1 -12.5 -8t-13.5 -29z" />
<glyph unicode="&#xab;" horiz-adv-x="948" d="M80 332v221l328 240v-179l-230 -172l230 -172v-176zM506 332v221l328 240v-179l-228 -172l228 -172v-176z" />
<glyph unicode="&#xac;" horiz-adv-x="1706" d="M254 741v117h1198v-502h-115v385h-1083z" />
<glyph unicode="&#xad;" horiz-adv-x="674" d="M86 240v163l500 265v-162z" />
<glyph unicode="&#xae;" horiz-adv-x="1706" d="M119 725q0 147 57 282t164 242q101 103 232 157t280 54q150 0 284 -55.5t240 -161.5q102 -102 156.5 -235.5t54.5 -282.5q0 -151 -54.5 -283t-158.5 -233q-109 -106 -243.5 -162.5t-278.5 -56.5q-145 0 -278.5 56t-239.5 163q-105 104 -160 237t-55 279zM207 725 q0 -127 49 -244t141 -211q91 -92 208 -141t245 -49q131 0 249.5 48.5t213.5 141.5q91 90 139.5 206t48.5 245q0 133 -48 251.5t-138 209.5q-94 93 -211.5 141.5t-251.5 48.5q-132 0 -247 -47t-204 -137q-94 -95 -144 -214t-50 -249zM561 317v840h311q178 0 264.5 -57 t86.5 -174q0 -89 -53 -148.5t-144 -75.5l188 -385h-157l-176 365h-179v-365h-141zM702 774h148q123 0 175 33t52 108q0 79 -54.5 114.5t-176.5 35.5h-144v-291z" />
<glyph unicode="&#xaf;" horiz-adv-x="1024" d="M256 1114v117h512v-117h-512z" />
<glyph unicode="&#xb0;" horiz-adv-x="674" d="M55 1171q0 119 82.5 201t200.5 82q117 0 200 -83t83 -200q0 -116 -83.5 -199t-201.5 -83t-199.5 82t-81.5 200zM135 1171q0 -84 59.5 -143t143.5 -59t142.5 59t58.5 143t-58.5 142.5t-142.5 58.5t-143.5 -58.5t-59.5 -142.5z" />
<glyph unicode="&#xb1;" horiz-adv-x="1706" d="M254 41v117h1198v-117h-1198zM254 719v117h541v344h118v-344h539v-117h-539v-344h-118v344h-541z" />
<glyph unicode="&#xb2;" horiz-adv-x="657" d="M23 532l288 359q85 104 110 154.5t25 99.5q0 68 -45 107.5t-125 39.5t-126 -48t-46 -134v-23h-65v37q0 109 69 168.5t195 59.5q130 0 212.5 -66t82.5 -168q0 -53 -22.5 -104.5t-75.5 -116.5l-246 -305h350v-60h-581z" />
<glyph unicode="&#xb3;" horiz-adv-x="522" d="M0 1274v61h496l-244 -290q15 1 29 1.5t34 0.5q81 0 122.5 -28.5t41.5 -82.5q0 -30 -15 -64t-44 -69l-227 -271h-183l266 322q26 30 38 52.5t12 39.5q0 28 -26.5 39.5t-88.5 11.5h-154l232 277h-289z" />
<glyph unicode="&#xb4;" horiz-adv-x="1024" d="M387 1014l209 350h152l-269 -350h-92z" />
<glyph unicode="&#xb5;" horiz-adv-x="1128" d="M-111 -426l316 1495h157l-126 -595q-8 -33 -11.5 -67t-3.5 -71q0 -109 57 -168t160 -59q125 0 208 101t128 308l121 551h156l-162 -754q-12 -52 -17.5 -84t-5.5 -51q0 -32 18.5 -48.5t53.5 -16.5q9 0 17.5 0.5t17.5 1.5l-27 -125q-21 -5 -44 -7.5t-48 -2.5 q-70 0 -104.5 35t-40.5 112q-41 -70 -117 -108.5t-172 -38.5q-87 0 -152.5 34t-109.5 103l-113 -545h-156z" />
<glyph unicode="&#xb6;" horiz-adv-x="1024" d="M76 1130q0 157 107.5 253t285.5 96h479v-78h-125v-1401h-94v1401h-182v-1401h-96v782q-173 8 -274 102.5t-101 245.5z" />
<glyph unicode="&#xb7;" d="M182 678q0 50 34.5 84.5t84.5 34.5q49 0 84 -35t35 -84t-35 -84t-84 -35t-84 35t-35 84z" />
<glyph unicode="&#xb8;" horiz-adv-x="1024" d="M303 -342q92 -20 145 -27.5t93 -7.5q64 0 97.5 23t33.5 67q0 54 -35 79.5t-111 25.5q-18 0 -28 -0.5t-18 -1.5l-1 184h66v-111h20q105 0 161 -44t56 -128q0 -85 -58 -130.5t-167 -45.5q-55 0 -114 9.5t-140 31.5v76z" />
<glyph unicode="&#xb9;" horiz-adv-x="381" d="M31 1280v53q59 2 198 15q29 2 45 4v-820h-141v754q-18 -1 -38.5 -2t-63.5 -4z" />
<glyph unicode="&#xba;" horiz-adv-x="754" d="M47 1036q0 142 85.5 231t223.5 89q150 0 250.5 -95.5t100.5 -238.5q0 -142 -86 -231t-224 -89q-149 0 -249.5 95.5t-100.5 238.5zM201 1028q0 -126 48.5 -202t127.5 -76q78 0 127 76.5t49 201.5q0 127 -48.5 204t-127.5 77t-127.5 -77t-48.5 -204z" />
<glyph unicode="&#xbb;" horiz-adv-x="948" d="M125 94v176l227 172l-227 172v179l328 -240v-221zM551 94v176l229 172l-229 172v179l328 -240v-221z" />
<glyph unicode="&#xbc;" horiz-adv-x="1417" d="M23 -33l913 1399h111l-912 -1399h-112zM29 1282v51q56 2 193 15q26 2 40 3v-765h-135v704q-16 -2 -49 -4t-49 -4zM723 252v16l383 482h145v-443h144v-55h-144v-252h-133v252h-395zM834 307h284v352z" />
<glyph unicode="&#xbd;" horiz-adv-x="1333" d="M23 -33l913 1399h111l-912 -1399h-112zM29 1282v51q56 2 193 15q26 2 40 3v-765h-135v704q-16 -2 -49 -4t-49 -4zM729 0l275 334q84 102 107.5 148t23.5 89q0 64 -44.5 102t-119.5 38q-76 0 -120 -46t-44 -126v-21h-64v33q0 103 66 159t186 56q125 0 203 -61.5t78 -157.5 q0 -49 -21.5 -97t-70.5 -110l-236 -285h336v-55h-555z" />
<glyph unicode="&#xbe;" horiz-adv-x="1552" d="M0 1278v57h473l-233 -270h61q78 0 118 -26t40 -76q0 -28 -15 -60t-45 -65l-215 -252h-176l256 299q25 30 36 50t11 36q0 26 -24.5 37.5t-85.5 11.5h-146l221 258h-276zM158 -33l913 1399h111l-912 -1399h-112zM858 252v16l383 482h145v-443h144v-55h-144v-252h-133v252 h-395zM969 307h284v352z" />
<glyph unicode="&#xbf;" horiz-adv-x="915" d="M106 322q0 88 39 168.5t109 138.5q21 17 59 47q66 51 86 76q19 21 30.5 57.5t27.5 136.5l20 123h58l36 -339q2 -18 4 -33v-5q0 -44 -79 -105q-19 -14 -29 -22q-78 -62 -116 -133t-38 -156q0 -99 61 -161t158 -62q96 0 148.5 51t52.5 144v24h90v-8q0 -137 -86.5 -217 t-234.5 -80q-175 0 -285.5 99t-110.5 256zM385 1247q0 49 35.5 84t85.5 35q49 0 84 -35t35 -84t-34.5 -84t-84.5 -35t-85.5 35t-35.5 84z" />
<glyph unicode="&#xc0;" horiz-adv-x="1100" d="M-12 0l549 1364l571 -1364h-264l-139 356h-461l-138 -356h-118zM279 440h389l-195 488zM315 1827h152l209 -350h-92z" />
<glyph unicode="&#xc1;" horiz-adv-x="1100" d="M-12 0l549 1364l571 -1364h-264l-139 356h-461l-138 -356h-118zM279 440h389l-195 488zM426 1477l209 350h152l-269 -350h-92z" />
<glyph unicode="&#xc2;" horiz-adv-x="1100" d="M-12 0l549 1364l571 -1364h-264l-139 356h-461l-138 -356h-118zM275 1477l200 350h152l200 -350h-92l-184 262l-184 -262h-92zM279 440h389l-195 488z" />
<glyph unicode="&#xc3;" horiz-adv-x="1100" d="M-12 0l549 1364l571 -1364h-264l-139 356h-461l-138 -356h-118zM262 1534q22 88 72 135t123 47q23 0 34 -1.5t19 -4.5l97 -33q12 -4 27 -7t28 -3q32 0 55 17.5t41 56.5h82q-26 -90 -74.5 -136t-116.5 -46q-14 0 -30.5 2.5t-34.5 7.5l-97 31q-15 4 -27.5 6t-25.5 2 q-29 0 -52.5 -19t-39.5 -55h-80zM279 440h389l-195 488z" />
<glyph unicode="&#xc4;" horiz-adv-x="1100" d="M-12 0l549 1364l571 -1364h-264l-139 356h-461l-138 -356h-118zM279 440h389l-195 488zM287 1634q0 43 30 73t72 30q41 0 72 -30.5t31 -72.5q0 -41 -30.5 -71.5t-72.5 -30.5q-41 0 -71.5 30.5t-30.5 71.5zM608 1634q0 43 30.5 73t72.5 30q41 0 71.5 -30.5t30.5 -72.5 q0 -41 -30.5 -71.5t-71.5 -30.5q-42 0 -72.5 30.5t-30.5 71.5z" />
<glyph unicode="&#xc5;" horiz-adv-x="1100" d="M-12 0l549 1364l571 -1364h-264l-139 356h-461l-138 -356h-118zM279 440h389l-195 488zM293 1673q0 101 69.5 170.5t169.5 69.5q101 0 171.5 -70t70.5 -170t-71 -170.5t-171 -70.5t-169.5 70t-69.5 171zM383 1671q0 -62 44 -105.5t108 -43.5q62 0 105.5 43.5t43.5 105.5 q0 63 -44 107.5t-105 44.5q-63 0 -107.5 -44.5t-44.5 -107.5z" />
<glyph unicode="&#xc6;" horiz-adv-x="1698" d="M-119 0l854 1337h850v-100h-547v-489h506v-101h-506v-547h547v-100h-788v356h-559l-228 -356h-129zM295 440h502v797z" />
<glyph unicode="&#xc7;" horiz-adv-x="1290" d="M76 668q0 299 186.5 498.5t462.5 199.5q168 0 291.5 -69t204.5 -207l-80 -56q-62 122 -153.5 183t-211.5 61q-201 0 -318.5 -166t-117.5 -453q0 -277 112 -430t314 -153q135 0 239.5 74.5t170.5 218.5l81 -52q-78 -169 -217.5 -259.5t-324.5 -90.5q-275 0 -457 197 t-182 504zM481 -342q92 -20 145 -27.5t93 -7.5q64 0 97.5 23t33.5 67q0 54 -35 79.5t-111 25.5q-18 0 -28 -0.5t-18 -1.5l-1 184h66v-111h20q105 0 161 -44t56 -128q0 -85 -58 -130.5t-167 -45.5q-55 0 -114 9.5t-140 31.5v76z" />
<glyph unicode="&#xc8;" horiz-adv-x="1112" d="M172 0v1337h827v-100h-579v-489h538v-101h-538v-547h579v-100h-827zM358 1827h152l209 -350h-92z" />
<glyph unicode="&#xc9;" horiz-adv-x="1112" d="M172 0v1337h827v-100h-579v-489h538v-101h-538v-547h579v-100h-827zM469 1477l209 350h152l-269 -350h-92z" />
<glyph unicode="&#xca;" horiz-adv-x="1112" d="M172 0v1337h827v-100h-579v-489h538v-101h-538v-547h579v-100h-827zM318 1477l200 350h152l200 -350h-92l-184 262l-184 -262h-92z" />
<glyph unicode="&#xcb;" horiz-adv-x="1112" d="M172 0v1337h827v-100h-579v-489h538v-101h-538v-547h579v-100h-827zM330 1634q0 43 30 73t72 30q41 0 72 -30.5t31 -72.5q0 -41 -30.5 -71.5t-72.5 -30.5q-41 0 -71.5 30.5t-30.5 71.5zM651 1634q0 43 30.5 73t72.5 30q41 0 71.5 -30.5t30.5 -72.5q0 -41 -30.5 -71.5 t-71.5 -30.5q-42 0 -72.5 30.5t-30.5 71.5z" />
<glyph unicode="&#xcc;" d="M65 1827h152l209 -350h-92zM178 0v1337h246v-1337h-246z" />
<glyph unicode="&#xcd;" d="M176 1477l209 350h152l-269 -350h-92zM178 0v1337h246v-1337h-246z" />
<glyph unicode="&#xce;" d="M25 1477l200 350h152l200 -350h-92l-184 262l-184 -262h-92zM178 0v1337h246v-1337h-246z" />
<glyph unicode="&#xcf;" d="M37 1634q0 43 30 73t72 30q41 0 72 -30.5t31 -72.5q0 -41 -30.5 -71.5t-72.5 -30.5q-41 0 -71.5 30.5t-30.5 71.5zM178 0v1337h246v-1337h-246zM358 1634q0 43 30.5 73t72.5 30q41 0 71.5 -30.5t30.5 -72.5q0 -41 -30.5 -71.5t-71.5 -30.5q-42 0 -72.5 30.5t-30.5 71.5z " />
<glyph unicode="&#xd0;" horiz-adv-x="1405" d="M0 645v107h172v585h328q391 0 611 -185.5t220 -512.5q0 -288 -179.5 -463.5t-473.5 -175.5h-506v645h-172zM418 100h147q121 0 199.5 21.5t130.5 66.5q82 72 126 196.5t44 287.5q0 273 -142.5 419t-410.5 146h-94v-485h278v-107h-278v-545z" />
<glyph unicode="&#xd1;" horiz-adv-x="1374" d="M168 0v1337h227l692 -923v923h119v-1337h-119l-800 1065v-1065h-119zM399 1534q22 88 72 135t123 47q23 0 34 -1.5t19 -4.5l97 -33q12 -4 27 -7t28 -3q32 0 55 17.5t41 56.5h82q-26 -90 -74.5 -136t-116.5 -46q-14 0 -30.5 2.5t-34.5 7.5l-97 31q-15 4 -27.5 6t-25.5 2 q-29 0 -52.5 -19t-39.5 -55h-80z" />
<glyph unicode="&#xd2;" horiz-adv-x="1518" d="M76 666q0 149 51 277t149 224t222 147.5t260 51.5q109 0 212 -34t193 -99q135 -98 207 -244.5t72 -322.5q0 -148 -51.5 -275.5t-149.5 -224.5q-99 -98 -222 -148.5t-261 -50.5q-140 0 -263 50.5t-221 148.5q-97 97 -147.5 225t-50.5 275zM340 666q0 -273 117.5 -443 t300.5 -170t300.5 169.5t117.5 443.5t-117 444t-301 170q-183 0 -300.5 -170t-117.5 -444zM524 1827h152l209 -350h-92z" />
<glyph unicode="&#xd3;" horiz-adv-x="1518" d="M76 666q0 149 51 277t149 224t222 147.5t260 51.5q109 0 212 -34t193 -99q135 -98 207 -244.5t72 -322.5q0 -148 -51.5 -275.5t-149.5 -224.5q-99 -98 -222 -148.5t-261 -50.5q-140 0 -263 50.5t-221 148.5q-97 97 -147.5 225t-50.5 275zM340 666q0 -273 117.5 -443 t300.5 -170t300.5 169.5t117.5 443.5t-117 444t-301 170q-183 0 -300.5 -170t-117.5 -444zM635 1477l209 350h152l-269 -350h-92z" />
<glyph unicode="&#xd4;" horiz-adv-x="1518" d="M76 666q0 149 51 277t149 224t222 147.5t260 51.5q109 0 212 -34t193 -99q135 -98 207 -244.5t72 -322.5q0 -148 -51.5 -275.5t-149.5 -224.5q-99 -98 -222 -148.5t-261 -50.5q-140 0 -263 50.5t-221 148.5q-97 97 -147.5 225t-50.5 275zM340 666q0 -273 117.5 -443 t300.5 -170t300.5 169.5t117.5 443.5t-117 444t-301 170q-183 0 -300.5 -170t-117.5 -444zM484 1477l200 350h152l200 -350h-92l-184 262l-184 -262h-92z" />
<glyph unicode="&#xd5;" horiz-adv-x="1518" d="M76 666q0 149 51 277t149 224t222 147.5t260 51.5q109 0 212 -34t193 -99q135 -98 207 -244.5t72 -322.5q0 -148 -51.5 -275.5t-149.5 -224.5q-99 -98 -222 -148.5t-261 -50.5q-140 0 -263 50.5t-221 148.5q-97 97 -147.5 225t-50.5 275zM340 666q0 -273 117.5 -443 t300.5 -170t300.5 169.5t117.5 443.5t-117 444t-301 170q-183 0 -300.5 -170t-117.5 -444zM471 1534q22 88 72 135t123 47q23 0 34 -1.5t19 -4.5l97 -33q12 -4 27 -7t28 -3q32 0 55 17.5t41 56.5h82q-26 -90 -74.5 -136t-116.5 -46q-14 0 -30.5 2.5t-34.5 7.5l-97 31 q-15 4 -27.5 6t-25.5 2q-29 0 -52.5 -19t-39.5 -55h-80z" />
<glyph unicode="&#xd6;" horiz-adv-x="1518" d="M76 666q0 149 51 277t149 224t222 147.5t260 51.5q109 0 212 -34t193 -99q135 -98 207 -244.5t72 -322.5q0 -148 -51.5 -275.5t-149.5 -224.5q-99 -98 -222 -148.5t-261 -50.5q-140 0 -263 50.5t-221 148.5q-97 97 -147.5 225t-50.5 275zM340 666q0 -273 117.5 -443 t300.5 -170t300.5 169.5t117.5 443.5t-117 444t-301 170q-183 0 -300.5 -170t-117.5 -444zM496 1634q0 43 30 73t72 30q41 0 72 -30.5t31 -72.5q0 -41 -30.5 -71.5t-72.5 -30.5q-41 0 -71.5 30.5t-30.5 71.5zM817 1634q0 43 30.5 73t72.5 30q41 0 71.5 -30.5t30.5 -72.5 q0 -41 -30.5 -71.5t-71.5 -30.5q-42 0 -72.5 30.5t-30.5 71.5z" />
<glyph unicode="&#xd7;" horiz-adv-x="1706" d="M301 135l475 475l-475 477l80 82l477 -477l475 477l82 -82l-475 -477l475 -475l-82 -82l-475 475l-477 -475z" />
<glyph unicode="&#xd8;" horiz-adv-x="1518" d="M76 666q0 148 51.5 276.5t148.5 224.5q98 96 222.5 147.5t259.5 51.5q97 0 190 -27.5t182 -83.5l160 215h121l-205 -272q114 -97 175 -234.5t61 -297.5q0 -299 -197.5 -499t-488.5 -200q-105 0 -201.5 30t-181.5 89l-168 -223h-123l215 284q-110 101 -165.5 231.5 t-55.5 287.5zM340 666q0 -103 18.5 -192.5t55.5 -170.5l626 834q-53 68 -127.5 105.5t-156.5 37.5q-182 0 -299 -171t-117 -443zM467 211q53 -76 129 -117t164 -41q183 0 299.5 169t116.5 444q0 114 -20.5 208t-61.5 175z" />
<glyph unicode="&#xd9;" horiz-adv-x="1270" d="M168 485v852h248v-807q0 -236 66 -328.5t223 -92.5t222.5 92.5t65.5 328.5v807h119v-852q0 -259 -117.5 -388.5t-353.5 -129.5q-105 0 -201.5 38t-158.5 104q-61 64 -87 146.5t-26 229.5zM430 1827h152l209 -350h-92z" />
<glyph unicode="&#xda;" horiz-adv-x="1270" d="M168 485v852h248v-807q0 -236 66 -328.5t223 -92.5t222.5 92.5t65.5 328.5v807h119v-852q0 -259 -117.5 -388.5t-353.5 -129.5q-105 0 -201.5 38t-158.5 104q-61 64 -87 146.5t-26 229.5zM541 1477l209 350h152l-269 -350h-92z" />
<glyph unicode="&#xdb;" horiz-adv-x="1270" d="M168 485v852h248v-807q0 -236 66 -328.5t223 -92.5t222.5 92.5t65.5 328.5v807h119v-852q0 -259 -117.5 -388.5t-353.5 -129.5q-105 0 -201.5 38t-158.5 104q-61 64 -87 146.5t-26 229.5zM390 1477l200 350h152l200 -350h-92l-184 262l-184 -262h-92z" />
<glyph unicode="&#xdc;" horiz-adv-x="1270" d="M168 485v852h248v-807q0 -236 66 -328.5t223 -92.5t222.5 92.5t65.5 328.5v807h119v-852q0 -259 -117.5 -388.5t-353.5 -129.5q-105 0 -201.5 38t-158.5 104q-61 64 -87 146.5t-26 229.5zM402 1634q0 43 30 73t72 30q41 0 72 -30.5t31 -72.5q0 -41 -30.5 -71.5 t-72.5 -30.5q-41 0 -71.5 30.5t-30.5 71.5zM723 1634q0 43 30.5 73t72.5 30q41 0 71.5 -30.5t30.5 -72.5q0 -41 -30.5 -71.5t-71.5 -30.5q-42 0 -72.5 30.5t-30.5 71.5z" />
<glyph unicode="&#xdd;" horiz-adv-x="1042" d="M-51 1337h293l338 -549l362 549h150l-447 -655v-682h-248v647zM397 1477l209 350h152l-269 -350h-92z" />
<glyph unicode="&#xde;" horiz-adv-x="1165" d="M172 0v1337h248v-264h231q214 0 336.5 -106.5t122.5 -290.5q0 -181 -113 -283t-311 -102h-266v-291h-248zM420 373h110q167 0 249.5 71.5t82.5 214.5q0 166 -82 247t-250 81h-110v-614z" />
<glyph unicode="&#xdf;" horiz-adv-x="1178" d="M172 0v1059q0 152 92.5 228.5t276.5 76.5q200 0 306.5 -70.5t106.5 -201.5q0 -63 -36 -117.5t-107 -97.5q-27 -17 -73 -41q-62 -31 -62 -45q0 -26 75 -58q22 -9 33 -14q173 -79 246.5 -167t73.5 -212q0 -178 -123.5 -272.5t-355.5 -94.5q-43 0 -90.5 3.5t-102.5 11.5v69 q42 -7 73 -10.5t56 -3.5q160 0 247 76.5t87 216.5q0 80 -33 145t-112 137l-93 82q-27 25 -38 43.5t-11 40.5q0 47 80 112q21 18 33 28q53 44 73.5 85t20.5 97q0 95 -66.5 147t-189.5 52q-95 0 -143.5 -44t-48.5 -128v-1133h-195z" />
<glyph unicode="&#xe0;" horiz-adv-x="840" d="M39 0l215 768q18 66 58 100.5t98 34.5q61 0 106 -38.5t66 -108.5l225 -756h-199l-80 270h-325l-78 -270h-86zM184 1364h152l209 -350h-92zM223 346h285l-104 372q-10 31 -19 40.5t-23 9.5q-10 0 -17.5 -10.5t-16.5 -40.5z" />
<glyph unicode="&#xe1;" horiz-adv-x="840" d="M39 0l215 768q18 66 58 100.5t98 34.5q61 0 106 -38.5t66 -108.5l225 -756h-199l-80 270h-325l-78 -270h-86zM223 346h285l-104 372q-10 31 -19 40.5t-23 9.5q-10 0 -17.5 -10.5t-16.5 -40.5zM295 1014l209 350h152l-269 -350h-92z" />
<glyph unicode="&#xe2;" horiz-adv-x="840" d="M39 0l215 768q18 66 58 100.5t98 34.5q61 0 106 -38.5t66 -108.5l225 -756h-199l-80 270h-325l-78 -270h-86zM144 1014l200 350h152l200 -350h-92l-184 262l-184 -262h-92zM223 346h285l-104 372q-10 31 -19 40.5t-23 9.5q-10 0 -17.5 -10.5t-16.5 -40.5z" />
<glyph unicode="&#xe3;" horiz-adv-x="840" d="M39 0l215 768q18 66 58 100.5t98 34.5q61 0 106 -38.5t66 -108.5l225 -756h-199l-80 270h-325l-78 -270h-86zM131 1071q22 88 72 135t123 47q23 0 34 -1.5t19 -4.5l97 -33q12 -4 27 -7t28 -3q32 0 55 17.5t41 56.5h82q-26 -90 -74.5 -136t-116.5 -46q-14 0 -30.5 2.5 t-34.5 7.5l-97 31q-15 4 -27.5 6t-25.5 2q-29 0 -52.5 -19t-39.5 -55h-80zM223 346h285l-104 372q-10 31 -19 40.5t-23 9.5q-10 0 -17.5 -10.5t-16.5 -40.5z" />
<glyph unicode="&#xe4;" horiz-adv-x="840" d="M39 0l215 768q18 66 58 100.5t98 34.5q61 0 106 -38.5t66 -108.5l225 -756h-199l-80 270h-325l-78 -270h-86zM156 1171q0 43 30 73t72 30q41 0 72 -30.5t31 -72.5q0 -41 -30.5 -71.5t-72.5 -30.5q-41 0 -71.5 30.5t-30.5 71.5zM223 346h285l-104 372q-10 31 -19 40.5 t-23 9.5q-10 0 -17.5 -10.5t-16.5 -40.5zM477 1171q0 43 30.5 73t72.5 30q41 0 71.5 -30.5t30.5 -72.5q0 -41 -30.5 -71.5t-71.5 -30.5q-42 0 -72.5 30.5t-30.5 71.5z" />
<glyph unicode="&#xe5;" horiz-adv-x="840" d="M39 0l215 768q18 66 58 100.5t98 34.5q61 0 106 -38.5t66 -108.5l225 -756h-199l-80 270h-325l-78 -270h-86zM174 1235q0 100 70.5 171t171.5 71q100 0 170.5 -71t70.5 -171q0 -99 -70.5 -169.5t-170.5 -70.5q-101 0 -171.5 70t-70.5 170zM223 346h285l-104 372 q-10 31 -19 40.5t-23 9.5q-10 0 -17.5 -10.5t-16.5 -40.5zM266 1235q0 -63 43.5 -106.5t106.5 -43.5q62 0 105.5 44t43.5 106q0 63 -44 107t-105 44q-63 0 -106.5 -44t-43.5 -107z" />
<glyph unicode="&#xe6;" horiz-adv-x="1219" d="M-39 0l473 811q2 3 5 8q34 58 110 58h590v-76h-299q-53 0 -70.5 -15t-17.5 -55v-221h317v-86h-317v-279q0 -41 17.5 -55t82.5 -14h297v-76h-459q-75 0 -104 31t-29 127v141h-332l-178 -299h-86zM268 379h289v422h-47z" />
<glyph unicode="&#xe7;" horiz-adv-x="868" d="M63 442q0 194 123.5 327.5t305.5 133.5q116 0 201.5 -50.5t129.5 -145.5l-73 -39q-39 82 -94.5 122.5t-131.5 40.5q-124 0 -190 -100t-66 -291q0 -174 69.5 -281.5t178.5 -107.5q77 0 140.5 47.5t109.5 139.5l70 -45q-56 -106 -147 -164t-202 -58q-180 0 -302 133.5 t-122 337.5zM260 -342q92 -20 145 -27.5t93 -7.5q64 0 97.5 23t33.5 67q0 54 -35 79.5t-111 25.5q-18 0 -28 -0.5t-18 -1.5l-1 184h66v-111h20q105 0 161 -44t56 -128q0 -85 -58 -130.5t-167 -45.5q-55 0 -114 9.5t-140 31.5v76z" />
<glyph unicode="&#xe8;" horiz-adv-x="799" d="M137 158v561q0 98 31.5 128t132.5 30h418v-76h-299q-53 0 -70.5 -15t-17.5 -55v-221h317v-86h-317v-279q0 -40 18 -54.5t84 -14.5h295v-76h-459q-74 0 -103.5 31t-29.5 127zM200 1364h152l209 -350h-92z" />
<glyph unicode="&#xe9;" horiz-adv-x="799" d="M137 158v561q0 98 31.5 128t132.5 30h418v-76h-299q-53 0 -70.5 -15t-17.5 -55v-221h317v-86h-317v-279q0 -40 18 -54.5t84 -14.5h295v-76h-459q-74 0 -103.5 31t-29.5 127zM311 1014l209 350h152l-269 -350h-92z" />
<glyph unicode="&#xea;" horiz-adv-x="799" d="M137 158v561q0 98 31.5 128t132.5 30h418v-76h-299q-53 0 -70.5 -15t-17.5 -55v-221h317v-86h-317v-279q0 -40 18 -54.5t84 -14.5h295v-76h-459q-74 0 -103.5 31t-29.5 127zM160 1014l200 350h152l200 -350h-92l-184 262l-184 -262h-92z" />
<glyph unicode="&#xeb;" horiz-adv-x="799" d="M137 158v561q0 98 31.5 128t132.5 30h418v-76h-299q-53 0 -70.5 -15t-17.5 -55v-221h317v-86h-317v-279q0 -40 18 -54.5t84 -14.5h295v-76h-459q-74 0 -103.5 31t-29.5 127zM172 1171q0 43 30 73t72 30q41 0 72 -30.5t31 -72.5q0 -41 -30.5 -71.5t-72.5 -30.5 q-41 0 -71.5 30.5t-30.5 71.5zM493 1171q0 43 30.5 73t72.5 30q41 0 71.5 -30.5t30.5 -72.5q0 -41 -30.5 -71.5t-71.5 -30.5q-42 0 -72.5 30.5t-30.5 71.5z" />
<glyph unicode="&#xec;" horiz-adv-x="469" d="M0 1364h152l209 -350h-92zM137 0v877h195v-877h-195z" />
<glyph unicode="&#xed;" horiz-adv-x="469" d="M111 1014l209 350h152l-269 -350h-92zM137 0v877h195v-877h-195z" />
<glyph unicode="&#xee;" horiz-adv-x="469" d="M-40 1014l200 350h152l200 -350h-92l-184 262l-184 -262h-92zM137 0v877h195v-877h-195z" />
<glyph unicode="&#xef;" horiz-adv-x="469" d="M-28 1171q0 43 30 73t72 30q41 0 72 -30.5t31 -72.5q0 -41 -30.5 -71.5t-72.5 -30.5q-41 0 -71.5 30.5t-30.5 71.5zM137 0v877h195v-877h-195zM293 1171q0 43 30.5 73t72.5 30q41 0 71.5 -30.5t30.5 -72.5q0 -41 -30.5 -71.5t-71.5 -30.5q-42 0 -72.5 30.5t-30.5 71.5z " />
<glyph unicode="&#xf0;" horiz-adv-x="1006" d="M63 449q0 202 114 327t300 125q34 0 68 -4.5t69 -13.5q-36 70 -73.5 136.5t-77.5 131.5l-238 -94l-30 80l221 92l-142 203h207l97 -138l206 82l33 -80l-186 -77q187 -297 247 -460t60 -325q0 -214 -110.5 -338.5t-299.5 -124.5q-200 0 -332.5 136t-132.5 342zM266 436 q0 -179 65.5 -289t170.5 -110t170 109.5t65 289.5t-65 291t-170 111t-170.5 -111t-65.5 -291z" />
<glyph unicode="&#xf1;" horiz-adv-x="932" d="M137 0v727q0 93 30.5 134.5t96.5 41.5q53 0 100 -36.5t89 -110.5l229 -408q1 -2 4.5 -4t7.5 -2q8 0 11.5 5t3.5 20v510h84v-803q0 -61 -14.5 -82t-49.5 -21q-25 0 -42.5 12.5t-33.5 41.5l-403 692q-4 7 -7 9.5t-7 2.5q-9 0 -12 -4t-3 -20v-705h-84zM184 1071 q22 88 72 135t123 47q23 0 34 -1.5t19 -4.5l97 -33q12 -4 27 -7t28 -3q32 0 55 17.5t41 56.5h82q-26 -90 -74.5 -136t-116.5 -46q-14 0 -30.5 2.5t-34.5 7.5l-97 31q-15 4 -27.5 6t-25.5 2q-29 0 -52.5 -19t-39.5 -55h-80z" />
<glyph unicode="&#xf2;" horiz-adv-x="1006" d="M63 449q0 201 114 327.5t298 126.5q200 0 333.5 -136t133.5 -341q0 -202 -114.5 -328.5t-299.5 -126.5q-198 0 -331.5 136t-133.5 342zM266 436q0 -179 65.5 -289t170.5 -110t170 109.5t65 289.5q0 181 -65 291.5t-170 110.5t-170.5 -111t-65.5 -291zM268 1364h152 l209 -350h-92z" />
<glyph unicode="&#xf3;" horiz-adv-x="1006" d="M63 449q0 201 114 327.5t298 126.5q200 0 333.5 -136t133.5 -341q0 -202 -114.5 -328.5t-299.5 -126.5q-198 0 -331.5 136t-133.5 342zM266 436q0 -179 65.5 -289t170.5 -110t170 109.5t65 289.5q0 181 -65 291.5t-170 110.5t-170.5 -111t-65.5 -291zM379 1014l209 350 h152l-269 -350h-92z" />
<glyph unicode="&#xf4;" horiz-adv-x="1006" d="M63 449q0 201 114 327.5t298 126.5q200 0 333.5 -136t133.5 -341q0 -202 -114.5 -328.5t-299.5 -126.5q-198 0 -331.5 136t-133.5 342zM228 1014l200 350h152l200 -350h-92l-184 262l-184 -262h-92zM266 436q0 -179 65.5 -289t170.5 -110t170 109.5t65 289.5 q0 181 -65 291.5t-170 110.5t-170.5 -111t-65.5 -291z" />
<glyph unicode="&#xf5;" horiz-adv-x="1006" d="M63 449q0 201 114 327.5t298 126.5q200 0 333.5 -136t133.5 -341q0 -202 -114.5 -328.5t-299.5 -126.5q-198 0 -331.5 136t-133.5 342zM215 1071q22 88 72 135t123 47q23 0 34 -1.5t19 -4.5l97 -33q12 -4 27 -7t28 -3q32 0 55 17.5t41 56.5h82q-26 -90 -74.5 -136 t-116.5 -46q-14 0 -30.5 2.5t-34.5 7.5l-97 31q-15 4 -27.5 6t-25.5 2q-29 0 -52.5 -19t-39.5 -55h-80zM266 436q0 -179 65.5 -289t170.5 -110t170 109.5t65 289.5q0 181 -65 291.5t-170 110.5t-170.5 -111t-65.5 -291z" />
<glyph unicode="&#xf6;" horiz-adv-x="1006" d="M63 449q0 201 114 327.5t298 126.5q200 0 333.5 -136t133.5 -341q0 -202 -114.5 -328.5t-299.5 -126.5q-198 0 -331.5 136t-133.5 342zM240 1171q0 43 30 73t72 30q41 0 72 -30.5t31 -72.5q0 -41 -30.5 -71.5t-72.5 -30.5q-41 0 -71.5 30.5t-30.5 71.5zM266 436 q0 -179 65.5 -289t170.5 -110t170 109.5t65 289.5q0 181 -65 291.5t-170 110.5t-170.5 -111t-65.5 -291zM561 1171q0 43 30.5 73t72.5 30q41 0 71.5 -30.5t30.5 -72.5q0 -41 -30.5 -71.5t-71.5 -30.5q-42 0 -72.5 30.5t-30.5 71.5z" />
<glyph unicode="&#xf7;" horiz-adv-x="1706" d="M254 553v117h1198v-117h-1198zM739 250q0 48 34 81.5t81 33.5t81 -34t34 -81t-33.5 -81t-81.5 -34t-81.5 33.5t-33.5 81.5zM739 971q0 47 34 80.5t81 33.5q48 0 81.5 -33.5t33.5 -80.5q0 -48 -33.5 -81.5t-81.5 -33.5q-49 0 -82 33.5t-33 81.5z" />
<glyph unicode="&#xf8;" horiz-adv-x="1006" d="M63 449q0 201 115.5 327.5t300.5 126.5q57 0 107 -11.5t98 -35.5l84 164h90l-110 -203q95 -67 144.5 -168t49.5 -225q0 -199 -115 -326t-297 -127q-50 0 -99.5 11t-100.5 32l-125 -239h-84l145 280q-97 60 -150 162.5t-53 231.5zM266 436q0 -81 14.5 -146.5t45.5 -123.5 l313 612q-27 30 -61 45t-76 15q-105 0 -170.5 -111t-65.5 -291zM375 96q27 -31 58 -45t69 -14q105 0 170 109.5t65 289.5q0 84 -12 149.5t-37 110.5z" />
<glyph unicode="&#xf9;" horiz-adv-x="905" d="M133 311v566h195v-568q0 -106 49.5 -163.5t142.5 -57.5q97 0 138.5 60t41.5 200v529h86v-590q0 -147 -82 -231.5t-225 -84.5q-170 0 -258 86.5t-88 253.5zM231 1364h152l209 -350h-92z" />
<glyph unicode="&#xfa;" horiz-adv-x="905" d="M133 311v566h195v-568q0 -106 49.5 -163.5t142.5 -57.5q97 0 138.5 60t41.5 200v529h86v-590q0 -147 -82 -231.5t-225 -84.5q-170 0 -258 86.5t-88 253.5zM342 1014l209 350h152l-269 -350h-92z" />
<glyph unicode="&#xfb;" horiz-adv-x="905" d="M133 311v566h195v-568q0 -106 49.5 -163.5t142.5 -57.5q97 0 138.5 60t41.5 200v529h86v-590q0 -147 -82 -231.5t-225 -84.5q-170 0 -258 86.5t-88 253.5zM191 1014l200 350h152l200 -350h-92l-184 262l-184 -262h-92z" />
<glyph unicode="&#xfc;" horiz-adv-x="905" d="M133 311v566h195v-568q0 -106 49.5 -163.5t142.5 -57.5q97 0 138.5 60t41.5 200v529h86v-590q0 -147 -82 -231.5t-225 -84.5q-170 0 -258 86.5t-88 253.5zM203 1171q0 43 30 73t72 30q41 0 72 -30.5t31 -72.5q0 -41 -30.5 -71.5t-72.5 -30.5q-41 0 -71.5 30.5t-30.5 71.5 zM524 1171q0 43 30.5 73t72.5 30q41 0 71.5 -30.5t30.5 -72.5q0 -41 -30.5 -71.5t-71.5 -30.5q-42 0 -72.5 30.5t-30.5 71.5z" />
<glyph unicode="&#xfd;" horiz-adv-x="788" d="M12 877h205l244 -615l256 615h90l-506 -1233h-96l153 360zM270 1014l209 350h152l-269 -350h-92z" />
<glyph unicode="&#xfe;" horiz-adv-x="993" d="M137 -356v1788h195v-555h110q221 0 354.5 -124t133.5 -325q0 -197 -127.5 -317.5t-337.5 -120.5q-35 0 -103 7l-30 3v-356h-195zM332 76q46 -6 74 -8t47 -2q141 0 209.5 79.5t68.5 243.5q0 212 -75 312t-236 100h-88v-725z" />
<glyph unicode="&#xff;" horiz-adv-x="788" d="M12 877h205l244 -615l256 615h90l-506 -1233h-96l153 360zM131 1171q0 43 30 73t72 30q41 0 72 -30.5t31 -72.5q0 -41 -30.5 -71.5t-72.5 -30.5q-41 0 -71.5 30.5t-30.5 71.5zM452 1171q0 43 30.5 73t72.5 30q41 0 71.5 -30.5t30.5 -72.5q0 -41 -30.5 -71.5t-71.5 -30.5 q-42 0 -72.5 30.5t-30.5 71.5z" />
<glyph unicode="&#x152;" horiz-adv-x="2009" d="M76 666q0 300 188 500t467 200q123 0 222 -43t180 -131v145h765v-100h-538v-489h498v-101h-498v-547h538v-100h-765v133q-77 -80 -182.5 -123t-225.5 -43q-131 0 -248.5 51t-208.5 146q-95 98 -143.5 225t-48.5 277zM336 666q0 -282 112.5 -448.5t301.5 -166.5 q167 0 259.5 115.5t92.5 327.5v346q0 211 -90 325.5t-254 114.5q-195 0 -308.5 -165t-113.5 -449z" />
<glyph unicode="&#x153;" horiz-adv-x="1364" d="M63 449q0 201 115 327.5t299 126.5q77 0 138.5 -21.5t107.5 -64.5q7 34 27 47t81 13h453v-76h-299q-53 0 -71.5 -15t-18.5 -55v-221h317v-86h-317v-279q0 -40 18.5 -54.5t83.5 -14.5h295v-76h-448q-50 0 -71 11t-32 38q-61 -41 -118 -59.5t-121 -18.5q-178 0 -308.5 139 t-130.5 339zM266 436q0 -180 65.5 -289.5t170.5 -109.5q69 0 124.5 47.5t75.5 126.5v453q-27 84 -78.5 129t-121.5 45q-105 0 -170.5 -111t-65.5 -291z" />
<glyph unicode="&#x178;" horiz-adv-x="1042" d="M-51 1337h293l338 -549l362 549h150l-447 -655v-682h-248v647zM258 1634q0 43 30 73t72 30q41 0 72 -30.5t31 -72.5q0 -41 -30.5 -71.5t-72.5 -30.5q-41 0 -71.5 30.5t-30.5 71.5zM579 1634q0 43 30.5 73t72.5 30q41 0 71.5 -30.5t30.5 -72.5q0 -41 -30.5 -71.5 t-71.5 -30.5q-42 0 -72.5 30.5t-30.5 71.5z" />
<glyph unicode="&#x2c6;" horiz-adv-x="1024" d="M236 1014l200 350h152l200 -350h-92l-184 262l-184 -262h-92z" />
<glyph unicode="&#x2dc;" horiz-adv-x="1024" d="M223 1071q22 88 72 135t123 47q23 0 34 -1.5t19 -4.5l97 -33q12 -4 27 -7t28 -3q32 0 55 17.5t41 56.5h82q-26 -90 -74.5 -136t-116.5 -46q-14 0 -30.5 2.5t-34.5 7.5l-97 31q-15 4 -27.5 6t-25.5 2q-29 0 -52.5 -19t-39.5 -55h-80z" />
<glyph unicode="&#x2000;" horiz-adv-x="956" />
<glyph unicode="&#x2001;" horiz-adv-x="1913" />
<glyph unicode="&#x2002;" horiz-adv-x="956" />
<glyph unicode="&#x2003;" horiz-adv-x="1913" />
<glyph unicode="&#x2004;" horiz-adv-x="637" />
<glyph unicode="&#x2005;" horiz-adv-x="478" />
<glyph unicode="&#x2006;" horiz-adv-x="318" />
<glyph unicode="&#x2007;" horiz-adv-x="318" />
<glyph unicode="&#x2008;" horiz-adv-x="239" />
<glyph unicode="&#x2009;" horiz-adv-x="382" />
<glyph unicode="&#x200a;" horiz-adv-x="106" />
<glyph unicode="&#x2010;" horiz-adv-x="674" d="M86 240v163l500 265v-162z" />
<glyph unicode="&#x2011;" horiz-adv-x="674" d="M86 240v163l500 265v-162z" />
<glyph unicode="&#x2012;" horiz-adv-x="674" d="M86 240v163l500 265v-162z" />
<glyph unicode="&#x2013;" horiz-adv-x="1024" d="M0 383v129h1024v-129h-1024z" />
<glyph unicode="&#x2014;" horiz-adv-x="2048" d="M0 383v129h2048v-129h-2048z" />
<glyph unicode="&#x2018;" d="M104 868q0 30 15.5 62.5t54.5 83.5l281 352l-123 -420q-30 -101 -58.5 -136.5t-70.5 -35.5t-70.5 27t-28.5 67z" />
<glyph unicode="&#x2019;" d="M147 774l121 420q30 101 58.5 136.5t70.5 35.5q43 0 71 -26.5t28 -67.5q0 -30 -15.5 -62.5t-54.5 -83.5z" />
<glyph unicode="&#x201a;" d="M76 -381l123 420q29 100 57.5 135t71.5 35q42 0 70 -26t28 -66q0 -31 -15.5 -65t-54.5 -83z" />
<glyph unicode="&#x201c;" horiz-adv-x="999" d="M102 868q0 30 15.5 62.5t54.5 83.5l279 352l-119 -420q-32 -102 -60.5 -137t-70.5 -35q-43 0 -71 27t-28 67zM500 868q0 30 15 62.5t54 83.5l281 352l-123 -420q-30 -101 -58.5 -136.5t-70.5 -35.5t-70 27t-28 67z" />
<glyph unicode="&#x201d;" horiz-adv-x="999" d="M150 774l120 420q29 99 58.5 135.5t72.5 36.5t71 -26.5t28 -67.5q0 -29 -15 -60.5t-57 -85.5zM547 774l123 420q29 101 57.5 136.5t71.5 35.5q42 0 70 -26.5t28 -67.5q0 -30 -15 -62.5t-55 -83.5z" />
<glyph unicode="&#x201e;" horiz-adv-x="999" d="M150 -381l120 420q29 97 58.5 133.5t72.5 36.5t71 -26t28 -66q0 -30 -16 -63t-56 -85zM547 -381l123 420q29 100 57.5 135t71.5 35q42 0 70 -26t28 -66q0 -31 -15.5 -65t-54.5 -83z" />
<glyph unicode="&#x2022;" horiz-adv-x="1208" d="M307 762q0 123 87 209t210 86q122 0 208.5 -86.5t86.5 -208.5t-87.5 -209.5t-209.5 -87.5q-123 0 -209 87t-86 210z" />
<glyph unicode="&#x2026;" horiz-adv-x="2048" d="M223 90q0 50 34.5 85.5t84.5 35.5q49 0 84 -35.5t35 -85.5q0 -49 -35 -84t-84 -35t-84 35t-35 84zM905 90q0 50 34.5 85.5t84.5 35.5q49 0 84 -35.5t35 -85.5q0 -49 -35 -84t-84 -35t-84 35t-35 84zM1589 90q0 50 34.5 85.5t84.5 35.5q49 0 84 -35.5t35 -85.5 q0 -49 -35 -84t-84 -35t-84 35t-35 84z" />
<glyph unicode="&#x202f;" horiz-adv-x="382" />
<glyph unicode="&#x2039;" horiz-adv-x="522" d="M70 332v221l327 240v-179l-229 -172l229 -172v-176z" />
<glyph unicode="&#x203a;" horiz-adv-x="522" d="M125 94v176l227 172l-227 172v179l328 -240v-221z" />
<glyph unicode="&#x205f;" horiz-adv-x="478" />
<glyph unicode="&#x20ac;" horiz-adv-x="1204" d="M0 502l33 92h110v12q0 39 2.5 80t7.5 86h-153l33 94h135q50 238 194.5 369t358.5 131q153 0 266.5 -68t190.5 -206l-117 -56q-58 126 -136.5 185t-189.5 59q-117 0 -209.5 -114t-122.5 -300h512l-32 -94h-489q-3 -38 -4 -61t-1 -43q0 -31 0.5 -46t2.5 -28h429l-33 -92 h-389q25 -199 118.5 -322t215.5 -123q115 0 198 64.5t144 202.5l109 -56q-76 -153 -197.5 -227t-296.5 -74q-211 0 -360 150t-180 385h-150z" />
<glyph unicode="&#x2122;" horiz-adv-x="1706" d="M254 1389v67h440v-67h-172v-467h-94v467h-174zM819 922v534h129l160 -405l149 405h132v-534h-82v458l-172 -458h-54l-180 458v-458h-82z" />
<glyph unicode="&#xe000;" horiz-adv-x="875" d="M0 0v875h875v-875h-875z" />
</font>
</defs>
</svg>
